<?xml version="1.0" standalone="no"?>
<!DOCTYPE svg PUBLIC "-//W3C//DTD SVG 1.1//EN" "http://www.w3.org/Graphics/SVG/1.1/DTD/svg11.dtd" >
<svg xmlns="http://www.w3.org/2000/svg">
<metadata>Generated by IcoMoon</metadata>
<defs>
<font id="stm-service-default" horiz-adv-x="1024">
<font-face units-per-em="1024" ascent="960" descent="-64" />
<missing-glyph horiz-adv-x="1024" />
<glyph unicode="&#x20;" horiz-adv-x="512" d="" />
<glyph unicode="&#xe900;" glyph-name="cash_dollar" d="M1021.136 557.11c-20.807-67.391-56.313-125.536-108.436-177.637-61.304-61.304-136.171-104.813-208.574-146.869-68.296-39.592-132.759-77.057-182.27-126.547-37.128-37.044-62.168-77.899-76.699-124.904-3.138-10.13-8.613-19.101-15.879-26.367-8.129-8.129-18.406-13.962-29.884-16.848-21.797-5.37-44.794 0.969-60.673 16.848l-319.979 319.979c-16.763 16.848-22.871 41.445-15.858 64.168 20.786 67.412 71.961 124.525 121.198 173.826 57.914 57.893 123.388 108.625 195.833 150.597 68.233 39.655 126.568 60.904 173.341 107.656 35.043 35.001 71.097 96.916 85.565 143.921 3.159 10.045 8.592 19.038 15.879 26.303 8.129 8.129 18.406 14.047 29.905 16.869 21.776 5.37 44.773-0.99 60.652-16.869l319.979-319.979c16.721-16.721 22.871-41.445 15.9-64.147zM623.384 871.108c-85.818-278.049-458.066-265.898-543.947-543.968 100.096-100.033 202.109-202.109 302.205-302.205 85.839 278.070 458.109 265.961 544.011 543.968-100.117 100.096-202.151 202.151-302.268 302.205zM660.575 756.649l-20.68-28.346c-12.931-17.648-27.756-34.854-44.162-51.259-17.079-17.079-35.464-32.453-54.355-46.942l-0.126 0.042c-6.002-5.518-15.373-5.391-21.123 0.442-5.939 5.939-5.939 15.647 0 21.607 1.074 1.116 2.295 1.895 3.538 2.59 17.774 13.583 34.917 27.82 50.711 43.614 15.289 15.289 29.083 31.358 41.108 47.784l20.070 27.483c0.695 1.306 1.537 2.59 2.654 3.728 5.96 5.96 15.584 5.96 21.544 0 5.665-5.686 5.897-14.657 0.758-20.68l0.063-0.063zM513.853 542.915c-4.149-3.475-8.866-4.654-14.299-3.601-5.37 1.074-11.204 2.443-17.606 4.022-6.255 1.579-12.825 2.295-19.691 1.98-6.823-0.232-13.92-3.559-21.249-10.193 16.237-17.121 32.474-35.549 48.69-54.207 10.277 4.991 20.491 9.287 30.642 13.246 10.151 3.917 20.301 6.17 30.22 6.929 10.024 0.737 19.943-0.4 29.862-3.18 9.982-2.78 19.901-8.403 29.757-16.637 8.613-7.181 14.594-14.594 17.985-23.271 3.433-8.571 4.675-18.006 3.601-28.451-1.053-10.382-4.233-21.607-9.624-33.232-5.349-11.583-12.615-23.25-21.649-34.348 5.286-4.717 10.593-9.203 15.942-13.457 2.148-1.79 3.454-4.191 3.77-7.371 0.295-3.138-0.611-6.149-2.864-8.866-2.211-2.654-4.991-4.128-8.171-4.254-3.285-0.232-6.002 0.695-8.234 2.654-5.286 4.738-10.593 9.624-15.858 14.763-10.93-10.972-22.049-18.364-33.253-22.428-11.119-4.128-21.712-5.665-31.758-4.949-10.024 0.632-19.164 3.054-27.23 6.886-8.066 3.854-14.742 8.719-19.88 14.51-5.075 5.749-7.666 11.477-7.666 17.079 0 5.665 2.464 10.698 7.434 14.994 4.823 4.128 9.203 6.128 13.331 6.065 4.086-0.042 8.129-1.137 12.004-3.054 3.959-1.959 7.939-4.296 11.941-7.097 4.022-2.696 8.382-4.823 13.12-6.297 4.717-1.432 9.919-1.537 15.753-0.295 5.833 1.179 12.446 4.844 20.007 11.204-17.88 18.996-35.759 39.466-53.597 60.083-22.449-12.067-43.32-17.859-62.694-19.017-19.438-1.116-36.18 3.917-50.396 15.71-8.74 7.244-14.742 14.931-17.964 23.966-3.243 8.971-4.359 18.638-3.18 29.21 1.137 10.509 4.149 21.312 9.224 32.221 5.012 10.867 11.393 21.186 19.122 30.536-1.959 1.706-3.917 3.348-5.876 5.012-2.253 1.916-3.559 4.38-3.854 7.603-0.379 3.117 0.611 6.086 2.78 8.613 2.253 2.611 4.97 4.022 8.255 4.022 3.264 0.063 5.981-1.032 8.15-3.012 1.959-1.853 3.938-3.706 5.918-5.581 5.117 5.096 12.046 10.277 20.659 15.352 8.613 5.096 17.711 8.677 27.251 10.867 9.708 2.106 19.017 2.211 28.093 0.632 9.224-1.643 16.911-6.086 23.271-13.373 4.991-5.686 7.244-11.477 6.95-17.416-0.358-5.918-2.78-10.782-7.139-14.573zM574.252 386.885c3.664 3.875 6.76 8.382 9.477 13.373 2.78 5.096 4.57 10.109 5.454 15.142 0.8 5.033 0.737 9.94-0.442 14.784-1.053 4.738-3.77 9.161-8.024 13.415-4.317 4.233-8.971 6.865-13.878 8.129-4.949 1.158-9.898 1.369-14.931 0.611-4.886-0.821-9.793-2.211-14.7-4.254-4.886-2.064-9.414-4.064-13.731-6.023 16.89-19.269 33.801-38.055 50.775-55.176zM425.508 520.171c-4.233-4.633-7.539-9.414-9.793-14.173-2.359-4.802-3.706-9.54-4.128-14.068-0.484-4.591-0.084-8.782 1.158-12.615 1.179-3.854 3.117-7.097 5.918-9.751 6.507-6.318 13.984-9.14 22.534-8.782s18.638 3.77 30.263 10.151c-15.331 17.29-30.621 33.99-45.952 49.237zM463.668 261.286h0.063c5.96 4.759 14.721 4.528 20.196-1.011 5.918-5.897 5.918-15.521 0-21.439-0.484-0.463-0.99-0.821-1.537-1.221l0.063-0.063c-19.143-14.531-34.854-27.63-51.807-44.583-15.31-15.268-29.146-31.379-41.129-47.742l-19.312-26.43c-0.59-1.116-1.327-2.085-2.232-3.054-5.918-5.876-15.563-5.876-21.46 0-5.139 5.139-5.77 13.099-1.98 18.975l-0.063 0.042 20.659 28.241c12.91 17.648 27.735 34.938 44.162 51.343 17.058 17.121 35.485 32.411 54.376 46.942z" />
<glyph unicode="&#xe901;" glyph-name="like_it" d="M952.749 393.561c19.885 30.029 29.815 63.107 29.815 99.233 0 41.817-15.408 78.157-46.247 109.020-30.863 30.863-67.393 46.271-109.592 46.271h-107.163c19.48 40.174 29.22 79.158 29.22 116.903 0 47.485-7.12 85.23-21.313 113.235-14.217 28.029-34.911 48.604-62.107 61.821-27.219 13.169-57.844 19.789-91.946 19.789-20.694 0-38.96-7.525-54.796-22.552-17.456-17.051-30.029-38.96-37.745-65.75s-13.907-52.462-18.575-77.014c-4.668-24.576-11.859-41.913-21.599-52.081-19.908-21.504-41.627-47.485-65.155-77.919-41.008-53.177-68.799-84.635-83.42-94.399h-166.817c-21.504 0-39.888-7.597-55.105-22.814s-22.838-33.601-22.838-55.105v-389.668c0-21.504 7.62-39.865 22.838-55.105 15.217-15.217 33.601-22.838 55.105-22.838h175.342c8.93 0 36.935-8.121 84.016-24.338 49.938-17.479 93.875-30.768 131.81-39.888 37.959-9.145 76.419-13.717 115.402-13.717h78.538c57.225 0 103.305 16.36 138.216 49.033 34.887 32.697 52.129 77.229 51.748 133.644 24.338 31.268 36.531 67.37 36.531 108.377 0 8.93-0.619 17.646-1.834 26.172 15.431 27.196 23.147 56.415 23.147 87.683 0 14.598-1.834 28.624-5.477 42.008zM191.679 114.081c-7.716-7.692-16.86-11.55-27.41-11.55s-19.67 3.858-27.386 11.55c-7.716 7.716-11.574 16.86-11.574 27.41s3.858 19.67 11.574 27.386c7.716 7.716 16.836 11.574 27.386 11.574s19.694-3.858 27.41-11.574c7.716-7.716 11.574-16.836 11.574-27.386s-3.858-19.694-11.574-27.41zM891.571 442.856c-8.74-18.67-19.599-28.22-32.577-28.624 6.073-6.906 11.169-16.551 15.217-28.91 4.072-12.383 6.073-23.647 6.073-33.792 0-28.005-10.74-52.153-32.268-72.442 7.335-12.979 10.978-27.005 10.978-42.008s-3.548-29.934-10.669-44.746c-7.097-14.812-16.717-25.457-28.886-31.958 2-12.169 3.024-23.552 3.024-34.102 0-67.775-38.983-101.662-116.927-101.662h-73.633c-53.2 0-122.594 14.788-208.253 44.437-2.024 0.81-7.906 2.953-17.646 6.406-9.764 3.429-16.956 5.977-21.623 7.573-4.668 1.643-11.764 4.001-21.313 7.025-9.549 3.048-17.241 5.287-23.147 6.716-5.882 1.405-12.574 2.715-20.075 3.929-7.501 1.238-13.907 1.834-19.17 1.834h-19.504v389.668h19.504c6.477 0 13.693 1.81 21.599 5.453 7.906 3.667 16.027 9.145 24.362 16.455 8.311 7.311 16.122 14.503 23.433 21.623 7.311 7.097 15.431 16.027 24.362 26.791 8.93 10.74 15.932 19.361 21.004 25.862s11.455 14.812 19.17 24.957c7.716 10.145 12.383 16.265 14.003 18.265 22.337 27.6 37.959 46.080 46.89 55.415 16.646 17.456 28.72 39.674 36.221 66.655 7.525 27.005 13.717 52.486 18.575 76.419 4.858 23.957 12.574 41.198 23.147 51.772 38.96 0 64.941-9.549 77.919-28.624s19.48-48.509 19.48-88.278c0-23.933-9.74-56.534-29.22-97.709-19.48-41.222-29.22-73.585-29.22-97.137h214.302c20.313 0 38.364-7.787 54.201-23.433 15.836-15.622 23.766-33.792 23.766-54.486 0-14.217-4.382-30.672-13.098-49.343z" />
<glyph unicode="&#xe902;" glyph-name="shield_check" d="M519.851-68.672c-3.819-1.344-7.829-2.005-11.819-2.005s-7.979 0.661-11.819 2.005c-432.064 149.696-425.301 504.469-420.352 763.499 0.533 27.84 1.045 54.144 1.045 79.595 0 19.925 16.149 36.075 36.096 36.075 154.368 0 271.893 44.352 369.877 139.605 13.995 13.611 36.309 13.611 50.325 0 97.984-95.253 215.531-139.605 369.899-139.605 19.947 0 36.096-16.149 36.096-36.075 0-25.429 0.512-51.733 1.045-79.573 4.949-259.029 11.712-613.803-420.395-763.52zM841.92 673.835c-0.277 14.528-0.555 28.587-0.725 42.389-134.101 5.653-241.365 46.379-333.163 126.507-91.776-80.128-199.019-120.853-333.099-126.507-0.192-13.803-0.469-27.883-0.747-42.411-4.608-242.027-9.792-516.032 333.845-641.109 343.68 125.077 338.496 399.083 333.888 641.131zM483.648 319.467c-7.061-7.040-16.299-10.581-25.536-10.581s-18.475 3.541-25.515 10.581l-99.883 99.84c-14.101 14.080-14.101 36.928 0 51.029s36.949 14.101 51.051 0l74.347-74.325 174.229 174.165c14.101 14.101 36.971 14.101 51.051 0 14.101-14.080 14.101-36.928 0-51.029l-199.744-199.68z" />
<glyph unicode="&#xe903;" glyph-name="award_blank" d="M954.724 313.611c-6.055-5.387-12.911-11.487-14.425-16.117-1.647-5.075 0.267-13.958 2.115-22.55 2.894-13.49 6.189-28.761-2.159-40.225-8.415-11.576-24.042-13.156-37.843-14.559-8.259-0.824-17.631-1.781-21.838-4.831-4.074-2.983-7.814-11.531-11.13-19.055-5.61-12.8-11.976-27.292-25.734-31.766-2.538-0.824-5.231-1.247-8.014-1.247-10.552 0-20.658 5.877-30.453 11.576-7.702 4.474-15.694 9.105-21.237 9.105s-13.512-4.63-21.237-9.105c-9.773-5.699-19.901-11.576-30.431-11.576-2.783 0-5.476 0.423-8.014 1.247-13.779 4.474-20.124 18.966-25.734 31.766-3.317 7.524-7.057 16.072-11.153 19.055-4.185 3.050-13.557 4.007-21.838 4.831-13.779 1.402-29.429 2.983-37.843 14.559-8.326 11.464-5.053 26.735-2.159 40.225 1.87 8.593 3.762 17.475 2.115 22.55-1.491 4.63-8.348 10.73-14.403 16.117-10.507 9.372-22.439 19.968-22.439 34.682s11.932 25.333 22.439 34.682c6.055 5.365 12.911 11.487 14.403 16.117 1.647 5.075-0.267 13.958-2.115 22.573-2.894 13.468-6.166 28.761 2.159 40.203 8.415 11.576 24.064 13.156 37.843 14.559 8.281 0.846 17.653 1.803 21.838 4.853 4.096 2.961 7.836 11.509 11.13 19.033 5.632 12.8 11.976 27.292 25.756 31.766 2.538 0.824 5.231 1.247 8.014 1.247 10.529 0 20.658-5.877 30.431-11.553 7.725-4.497 15.694-9.127 21.237-9.127s13.535 4.63 21.237 9.127c9.795 5.677 19.901 11.553 30.453 11.553 2.783 0 5.476-0.423 8.014-1.247 13.757-4.474 20.124-18.966 25.734-31.766 3.295-7.524 7.057-16.072 11.13-19.033 4.207-3.050 13.579-4.007 21.838-4.853 13.802-1.402 29.429-2.983 37.843-14.559 8.348-11.464 5.053-26.735 2.159-40.203-1.848-8.615-3.762-17.497-2.115-22.573 1.514-4.63 8.37-10.752 14.425-16.117 10.507-9.35 22.417-19.968 22.417-34.682s-11.91-25.311-22.417-34.682zM784.006 418.616c-38.823 0-70.3-31.477-70.3-70.322s31.477-70.322 70.3-70.322c38.823 0 70.3 31.477 70.3 70.322s-31.477 70.322-70.3 70.322zM222.742 736.946c0 16.228 13.134 29.362 29.362 29.362h421.843c16.228 0 29.384-13.134 29.384-29.362 0-16.206-13.156-29.34-29.384-29.34h-421.843c-16.228 0-29.362 13.134-29.362 29.34zM570.168 562.799h-318.063c-16.228 0-29.362 13.134-29.362 29.362 0 16.206 13.134 29.34 29.362 29.34h318.063c16.206 0 29.362-13.134 29.362-29.34 0-16.228-13.156-29.362-29.362-29.362zM827.659 594.387c-8.147 4.563-18.098 9.572-29.696 12.934v264.704h-664.999v-765.707h533.415v-88.064h-533.415c-48.662 0-88.086 39.424-88.086 88.064v765.707c0 48.618 39.424 88.042 88.086 88.042h664.999c48.662 0 88.109-39.424 88.109-88.042v-260.942c-0.801 0-1.558 0.067-2.36 0.067-23.374 0-42.296-9.038-56.053-16.762zM717.958 144.896c4.586-1.491 9.439-2.226 14.381-2.226 16.095 0 29.785 7.947 40.782 14.336 3.117 1.825 7.969 4.63 10.886 5.899 2.916-1.269 7.769-4.074 10.908-5.899 10.997-6.389 24.687-14.336 40.782-14.336 4.942 0 9.773 0.735 14.381 2.248 13.468 4.363 22.261 13.802 28.472 23.73v-222.653c0-4.408-2.605-8.415-6.656-10.195-1.425-0.623-2.961-0.935-4.452-0.935-2.738 0-5.454 1.024-7.546 2.938l-75.887 69.81-75.887-69.81c-3.25-2.983-7.947-3.762-11.999-2.003-4.029 1.781-6.656 5.788-6.656 10.195v222.542c6.211-9.951 14.893-19.211 28.494-23.641z" />
<glyph unicode="&#xe904;" glyph-name="diagnostic_monitor" d="M886.156 152.483h-744.96c-77.731 0-141.103 64-141.103 142.499v510.999c0 78.476 63.372 142.476 141.103 142.476h744.96c77.731 0 141.103-64 141.103-142.476v-510.999c0-78.499-63.372-142.499-141.103-142.499zM942.848 801.21c0 34.7-28.113 62.836-62.836 62.836h-733.091c-34.7 0-62.836-28.137-62.836-62.836v-502.691c0-34.7 28.137-62.836 62.836-62.836h733.091c34.723 0 62.836 28.137 62.836 62.836v502.691zM745.798 510.487h-58.484c-11.171 0-21.388 6.447-26.484 16.687l-18.944 38.284-66.886-184.832c-4.655-11.38-15.476-18.735-27.415-18.735-0.372 0-0.768 0-1.14 0-12.381 0.489-23.18 8.82-27.089 20.945l-55.529 193.024-17.408-45.871c-4.445-11.753-15.43-19.503-27.695-19.503h-188.3v61.277h168.006l39.959 105.332c4.561 12.009 16.268 19.898 28.463 19.456 12.497-0.326 23.482-8.704 27.439-20.945l56.553-175.174 60.998 149.527c4.492 10.985 14.755 18.292 26.321 18.735 11.916 0.512 22.342-6.074 27.578-16.687l39.773-80.268h40.285c16.407 0 29.743-13.708 29.743-30.627 0-16.896-13.335-30.627-29.743-30.627zM402.595 89.065h221.766c25.53 0 46.196-44.381 46.196-73.309 0-28.905-20.666-73.309-46.196-73.309h-221.766c-25.53 0-46.22 44.404-46.22 73.309 0 28.928 20.689 73.309 46.22 73.309z" />
<glyph unicode="&#xe905;" glyph-name="calendar_service" d="M585.578 438.135v0c-29.421 0-53.223-23.802-53.223-53.223 0-29.371 23.852-53.223 53.223-53.223v0c29.346 0 53.223 23.852 53.223 53.223 0 29.421-23.827 53.223-53.223 53.223zM425.934 491.333c29.371 0 53.223 23.852 53.223 53.223 0 29.396-23.852 53.198-53.223 53.198s-53.223-23.802-53.223-53.198c0-29.371 23.852-53.223 53.223-53.223zM585.578 597.754v0c-29.421 0-53.223-23.802-53.223-53.198 0-29.371 23.802-53.223 53.223-53.223v0c29.346 0 53.223 23.852 53.223 53.223 0 29.396-23.827 53.198-53.223 53.198zM629.385 858.1h-247.259l-0.25-135.068h247.758l-0.25 135.068zM745.222 491.333c29.346 0 53.198 23.852 53.198 53.223 0 29.396-23.777 53.198-53.198 53.198s-53.223-23.802-53.223-53.198c0-29.371 23.852-53.223 53.223-53.223zM745.222 331.689c29.346 0 53.198 23.852 53.198 53.223 0 29.421-23.777 53.198-53.198 53.198s-53.223-23.777-53.223-53.198c0-29.371 23.852-53.223 53.223-53.223zM425.934 331.689c29.371 0 53.223 23.852 53.223 53.223 0 29.421-23.827 53.223-53.223 53.223s-53.223-23.802-53.223-53.223c0-29.371 23.852-53.223 53.223-53.223zM266.29 172.044c29.371 0 53.223 23.852 53.223 53.223 0 29.421-23.852 53.198-53.223 53.198-29.396 0-53.223-23.777-53.223-53.198 0-29.371 23.852-53.223 53.223-53.223zM899.122 858.1h-44.956v-134.868l67.559 1.598v-676.065h-831.938v676.065l67.559-1.598v134.868h-44.956c-58.768 0-112.165-41.884-112.165-100.702v-691.749c0-58.793 47.653-106.446 106.421-106.446h798.22c58.768 0 106.421 47.653 106.421 106.446v691.749c0 58.818-53.398 100.702-112.165 100.702zM266.29 331.689c29.371 0 53.223 23.852 53.223 53.223 0 29.421-23.852 53.223-53.223 53.223-29.396 0-53.223-23.802-53.223-53.223 0-29.371 23.852-53.223 53.223-53.223zM266.29 491.333c29.371 0 53.223 23.852 53.223 53.223 0 29.396-23.852 53.198-53.223 53.198-29.396 0-53.223-23.802-53.223-53.198 0-29.371 23.852-53.223 53.223-53.223zM425.934 172.044c29.371 0 53.223 23.852 53.223 53.223 0 29.421-23.852 53.198-53.223 53.198s-53.223-23.777-53.223-53.198c0-29.371 23.852-53.223 53.223-53.223zM258.572 745.484c30.92 0 55.995 22.653 55.995 50.576v101.151c0 27.948-25.051 50.576-55.995 50.576-30.92 0-56.020-22.628-56.020-50.576v-101.151c0-27.923 25.1-50.576 56.020-50.576zM752.94 745.484c30.92 0 56.020 22.653 56.020 50.576v101.151c0 27.948-25.1 50.576-56.020 50.576-30.97 0-56.020-22.628-56.020-50.576v-101.151c0-27.923 25.125-50.576 56.020-50.576z" />
<glyph unicode="&#xe906;" glyph-name="appointment_calendar" horiz-adv-x="1010" d="M-0.482-28.122v858.276c0 19.407 15.858 35.265 35.265 35.265h123.449c19.407 0 35.265-15.858 35.265-35.265s-15.858-35.309-35.265-35.309h-88.184v-787.702h870.060v787.702h-76.4c-19.407 0-35.265 15.902-35.265 35.309s15.858 35.265 35.265 35.265h111.709c19.407 0 35.265-15.858 35.265-35.265v-858.276c0-19.363-15.858-35.265-35.265-35.265h-940.634c-19.407 0-35.265 15.902-35.265 35.265zM587.415 830.155c0 19.407-15.902 35.265-35.309 35.265h-99.925c-19.407 0-35.265-15.858-35.265-35.265s15.858-35.309 35.265-35.309h99.925c19.407 0 35.309 15.902 35.309 35.309zM246.417 218.777h-58.79c-19.407 0-35.265-15.858-35.265-35.265v-58.79c0-19.407 15.858-35.265 35.265-35.265h58.79c19.407 0 35.265 15.858 35.265 35.265v58.79c0 19.407-15.858 35.265-35.265 35.265zM375.781 89.458h64.66c19.407 0 35.265 15.858 35.265 35.265v58.79c0 19.407-15.858 35.265-35.265 35.265h-64.66c-19.407 0-35.309-15.858-35.309-35.265v-58.79c0-19.407 15.902-35.265 35.309-35.265zM569.76 89.458h58.79c19.407 0 35.265 15.858 35.265 35.265v58.79c0 19.407-15.858 35.265-35.265 35.265h-58.79c-19.407 0-35.265-15.858-35.265-35.265v-58.79c0-19.407 15.858-35.265 35.265-35.265zM281.682 371.622c0 19.407-15.858 35.265-35.265 35.265h-58.79c-19.407 0-35.265-15.858-35.265-35.265v-58.79c0-19.407 15.858-35.265 35.265-35.265h58.79c19.407 0 35.265 15.858 35.265 35.265v58.79zM475.705 371.622c0 19.407-15.858 35.265-35.265 35.265h-64.66c-19.407 0-35.309-15.858-35.309-35.265v-58.79c0-19.407 15.902-35.265 35.309-35.265h64.66c19.407 0 35.265 15.858 35.265 35.265v58.79zM663.815 371.622c0 19.407-15.858 35.265-35.265 35.265h-58.79c-19.407 0-35.265-15.858-35.265-35.265v-58.79c0-19.407 15.858-35.265 35.265-35.265h58.79c19.407 0 35.265 15.858 35.265 35.265v58.79zM763.784 277.567h58.746c19.407 0 35.309 15.858 35.309 35.265v58.79c0 19.407-15.902 35.265-35.309 35.265h-58.746c-19.407 0-35.309-15.858-35.309-35.265v-58.79c0-19.407 15.902-35.265 35.309-35.265zM475.705 559.731c0 19.407-15.858 35.265-35.265 35.265h-64.66c-19.407 0-35.309-15.858-35.309-35.265v-58.79c0-19.407 15.902-35.265 35.309-35.265h64.66c19.407 0 35.265 15.858 35.265 35.265v58.79zM316.991 724.36c19.363 0 35.265 15.858 35.265 35.221v164.629c0 19.407-15.902 35.265-35.265 35.265h-35.309c-19.407 0-35.265-15.858-35.265-35.265v-164.629c0-19.363 15.858-35.221 35.265-35.221h35.309zM722.604 724.36c19.407 0 35.265 15.858 35.265 35.221v164.629c0 19.407-15.858 35.265-35.265 35.265h-35.265c-19.407 0-35.265-15.858-35.265-35.265v-164.629c0-19.363 15.858-35.221 35.265-35.221h35.265zM663.815 559.731c0 19.407-15.858 35.265-35.265 35.265h-58.79c-19.407 0-35.265-15.858-35.265-35.265v-58.79c0-19.407 15.858-35.265 35.265-35.265h58.79c19.407 0 35.265 15.858 35.265 35.265v58.79zM857.838 559.731c0 19.407-15.902 35.265-35.309 35.265h-58.746c-19.407 0-35.309-15.858-35.309-35.265v-58.79c0-19.407 15.902-35.265 35.309-35.265h58.746c19.407 0 35.309 15.858 35.309 35.265v58.79z" />
<glyph unicode="&#xe907;" glyph-name="listing_car_plus" horiz-adv-x="1671" d="M1347.368 313.263c-178.607 0-323.368 144.761-323.368 323.368s144.761 323.368 323.368 323.368c178.607 0 323.368-144.761 323.368-323.368s-144.761-323.368-323.368-323.368zM1455.158 690.526h-53.895v53.895c0 29.75-24.145 53.895-53.895 53.895s-53.895-24.145-53.895-53.895v-53.895h-53.895c-29.75 0-53.895-24.145-53.895-53.895s24.145-53.895 53.895-53.895h53.895v-53.895c0-29.75 24.145-53.895 53.895-53.895s53.895 24.145 53.895 53.895v53.895h53.895c29.75 0 53.895 24.145 53.895 53.895s-24.145 53.895-53.895 53.895zM1092.015 289.765c36.81-27.109 77.932-48.775 122.395-63.165 18.055-21.558 31.313-47.212 37.511-75.56 2.641-12.18 4.096-24.684 4.096-37.619 0-12.881-1.455-25.438-4.096-37.565-17.408-79.98-89.196-140.072-174.942-140.072s-157.48 60.093-174.888 140.072c-2.641 12.126-4.15 24.684-4.15 37.565 0 12.935 1.509 25.438 4.15 37.619 17.408 79.926 89.196 140.072 174.888 140.072 5.12 0 10.024-0.916 15.037-1.347zM981.1 151.040c-4.635-11.695-7.437-24.307-7.437-37.619 0-13.258 2.749-25.869 7.437-37.565 15.144-37.942 52.332-64.943 95.879-64.943s80.68 27.055 95.879 64.943c4.689 11.695 7.437 24.307 7.437 37.565 0 13.312-2.749 25.923-7.437 37.619-15.144 37.942-52.332 64.889-95.879 64.889s-80.734-27.001-95.879-64.889zM464.141 454.252c0 144.115 118.191 261.389 263.437 261.389 74.051 0 140.773-30.72 188.685-79.71 0.108-80.195 22.474-155.001 60.739-219.244h-512.862v37.565zM911.414 491.816c-17.624 84.723-93.346 148.642-183.835 148.642s-166.265-63.919-183.835-148.642h367.67zM727.579 777.297c-174.242 0-331.453-109.46-391.114-272.384l-5.066-13.743-13.096-6.737c-22.474-11.587-43.816-21.504-63.973-30.828-113.071-52.493-172.679-80.141-178.499-302.565h83.537c-2.21-12.234-3.557-24.738-3.557-37.619 0-12.827 1.347-25.331 3.557-37.565h-159.744v37.565c0 290.816 80.465 342.285 222.639 408.253 15.414 7.114 31.582 14.605 48.397 23.013 74.321 184.697 256 307.739 456.973 307.739 78.309 0 153.384-19.133 220.645-52.871-9.593-23.552-17.3-48.074-22.636-73.459-59.769 32.391-127.299 51.2-198.063 51.2zM370.095 291.112c85.747 0 157.48-60.147 174.942-140.072 2.641-12.18 4.096-24.684 4.096-37.619 0-12.881-1.455-25.438-4.096-37.565-17.408-79.98-89.25-140.072-174.942-140.072s-157.48 60.093-174.942 140.072c-2.641 12.126-4.096 24.684-4.096 37.565 0 12.935 1.455 25.438 4.096 37.619 17.462 79.926 89.196 140.072 174.942 140.072zM274.216 75.857c15.144-37.942 52.332-64.943 95.879-64.943s80.734 27.055 95.879 64.943c4.689 11.695 7.437 24.307 7.437 37.565 0 13.312-2.749 25.923-7.437 37.619-15.144 37.942-52.332 64.889-95.879 64.889s-80.68-27.001-95.879-64.889c-4.689-11.695-7.437-24.307-7.437-37.619 0-13.258 2.749-25.869 7.437-37.565zM866.25 151.040c-2.156-12.234-3.503-24.738-3.503-37.619 0-12.827 1.347-25.331 3.503-37.565h-285.427c2.21 12.234 3.557 24.738 3.557 37.565 0 12.881-1.347 25.384-3.557 37.619h285.427zM1379.274 151.040c-0.485 20.372-1.671 38.589-3.072 55.889 25.654 1.725 50.607 5.605 74.806 11.641 2.91-31.205 4.473-65.805 4.473-105.149v-37.565h-167.774c2.264 12.234 3.557 24.738 3.557 37.565 0 12.881-1.293 25.384-3.557 37.619h91.567z" />
<glyph unicode="&#xe908;" glyph-name="user" horiz-adv-x="853" d="M808.277-21.589c-29.44-28.587-68.608-42.837-117.333-42.837h-528.555c-48.811 0-87.893 14.251-117.333 42.837-29.44 28.501-44.117 67.413-44.117 116.736 0 21.76 0.683 43.008 2.048 63.744 1.451 20.736 4.267 43.093 8.533 67.072 4.181 24.064 9.557 46.336 15.957 66.901 6.485 20.48 15.104 40.533 26.027 60.075 10.923 19.456 23.381 36.096 37.461 49.835 14.165 13.824 31.403 24.747 51.712 32.939 20.395 8.277 42.837 12.373 67.413 12.373 3.669 0 12.117-4.437 25.429-13.227 13.312-8.875 28.331-18.773 45.056-29.611s38.485-20.736 65.28-29.525c26.88-8.875 53.76-13.312 80.811-13.312 26.965 0 53.931 4.437 80.725 13.312 26.795 8.789 48.555 18.688 65.28 29.525s31.744 20.736 45.056 29.611c13.312 8.789 21.76 13.227 25.429 13.227 24.576 0 47.019-4.096 67.413-12.373 20.309-8.192 37.547-19.115 51.712-32.939 14.080-13.739 26.624-30.379 37.461-49.835 10.923-19.541 19.541-39.595 26.027-60.075 6.485-20.565 11.776-42.837 16.043-66.901 4.181-23.979 7.083-46.336 8.448-67.072 1.451-20.736 2.133-41.984 2.133-63.744 0-49.323-14.677-88.235-44.117-116.736zM426.667 487.424c-64.085 0-118.869 23.125-164.181 69.291-45.397 46.165-68.096 101.888-68.096 167.253 0 65.28 22.699 121.003 68.096 167.253 45.312 46.165 100.096 69.205 164.181 69.205s118.784-23.040 164.181-69.205c45.397-46.251 68.011-101.973 68.011-167.253 0-65.365-22.613-121.088-68.011-167.253s-100.096-69.291-164.181-69.291z" />
<glyph unicode="&#xe909;" glyph-name="listing-compare" horiz-adv-x="1063" d="M992.689 138.082c-0.236-0.551-0.236-1.142-0.512-1.733-0.473-0.906-1.26-1.575-1.812-2.363-22.528-39.7-49.506-76.958-81.723-110.356-15.242-15.99-40.29-16.108-55.65-0.236-15.439 15.951-15.518 41.669-0.197 57.62 18.55 19.22 34.934 40.094 49.743 61.913l-65.89 39.306c-18.826 11.264-25.324 36.116-14.415 55.572 10.87 19.495 34.974 26.112 53.799 14.927l65.93-39.345c22.213 49.152 36.273 102.046 40.802 157.066h-76.209c-21.78 0-39.424 18.156-39.424 40.684s17.644 40.724 39.424 40.724h76.13c-11.894 141.47-84.834 265.019-191.488 342.37l-38.046-68.017c-7.247-13.036-20.48-20.322-34.146-20.322-6.695 0-13.43 1.694-19.653 5.435-18.786 11.264-25.246 36.116-14.415 55.572l38.006 67.978c-46.789 22.686-97.871 37.415-151.749 42.299v-78.651c0-22.489-17.644-40.684-39.424-40.684-21.74 0-39.385 18.235-39.385 40.684v78.651c-53.878-4.884-104.921-19.653-151.828-42.299l37.927-67.899c10.87-19.456 4.332-44.386-14.415-55.611-6.223-3.663-13.036-5.435-19.692-5.435-13.588 0-26.821 7.286-34.107 20.322l-37.967 67.978c-43.166-31.35-80.817-70.302-111.143-114.964l65.694-39.266c18.786-11.264 25.246-36.155 14.336-55.611-7.286-13.076-20.519-20.362-34.107-20.362-6.735 0-13.47 1.772-19.692 5.514l-65.615 39.227c-21.977-48.443-36.234-101.258-40.881-156.987h76.052c21.74 0 39.345-18.314 39.345-40.763 0-22.489-17.684-40.724-39.385-40.724 0 0 0 0-0.039 0l-76.052 0.079c4.529-55.060 18.59-107.914 40.802-157.066l65.89 39.306c18.826 11.225 42.929 4.529 53.76-14.927 10.87-19.456 4.372-44.347-14.454-55.532l-65.851-39.266c15.006-22.055 31.705-43.284 50.609-62.779 15.399-15.911 15.399-41.669 0-57.58-7.68-7.916-17.762-11.934-27.845-11.934s-20.126 4.017-27.845 11.934c-32.414 33.595-59.668 70.971-82.353 110.789-0.709 1.103-1.575 1.93-2.245 3.033-0.354 0.67-0.354 1.378-0.709 2.048-45.568 82.038-70.341 175.065-70.42 272.266-0.039 0.236-0.079 0.354-0.079 0.551s0.079 0.315 0.079 0.473c0.079 98.816 25.876 191.291 70.302 271.439 0.394 0.866 0.394 1.93 0.866 2.875 0.67 1.103 1.694 1.772 2.402 2.836 46.041 80.778 111.34 148.204 189.519 195.742 0.985 0.67 1.615 1.812 2.718 2.402 0.827 0.512 1.812 0.512 2.718 0.985 77.627 45.922 167.306 72.625 263.089 72.625 95.744 0 185.423-26.703 263.168-72.665 0.788-0.433 1.733-0.394 2.599-0.945 1.024-0.551 1.654-1.575 2.599-2.324 157.223-95.547 263.286-271.754 263.286-473.521 0-97.438-24.93-190.779-70.735-273.054zM531.771 329.807c-43.441 0-78.769 36.51-78.769 81.408 0 44.859 35.328 81.329 78.769 81.329 17.093 0 32.926-5.829 45.922-15.478l295.109 137.61-263.010-195.505c0.158-2.639 0.748-5.278 0.748-8.034 0-44.898-35.367-81.329-78.769-81.329zM512.354 445.794c-11.776-7.089-20.007-19.653-20.007-34.658 0-22.449 17.684-40.684 39.424-40.684 7.207 0 13.548 2.56 19.377 6.065l-38.794 69.278zM334.809 99.289h393.846c21.662 0 39.345-18.393 39.345-40.763v-81.408c0-22.37-17.684-40.684-39.345-40.684h-393.846c-21.662 0-39.385 18.353-39.385 40.684v81.408c0 22.37 17.762 40.763 39.385 40.763z" />
<glyph unicode="&#xe90a;" glyph-name="cog" d="M1019.831 505.71c-1.682 14.409-18.432 25.234-32.914 25.234-46.885 0-88.503 27.502-105.911 70.144-17.847 43.666-6.363 94.574 28.599 126.683 10.971 10.021 12.288 26.917 3.072 38.619-23.991 30.501-51.273 58.002-81.042 81.92-11.63 9.362-28.745 8.046-38.839-3.145-30.501-33.792-85.285-46.373-127.634-28.672-44.032 18.505-71.826 63.195-69.12 111.177 0.878 15.067-10.094 28.16-25.088 29.915-38.254 4.389-76.8 4.535-115.127 0.293-14.775-1.609-25.819-14.409-25.307-29.33 1.682-47.47-26.478-91.355-70.071-109.275-41.838-17.042-96.183-4.608-126.61 28.891-10.094 11.045-26.917 12.361-38.619 3.291-30.647-24.137-58.587-51.712-82.798-81.92-9.435-11.776-8.046-28.818 3.072-38.985 35.621-32.256 47.104-83.602 28.599-127.781-17.627-42.057-61.294-69.193-111.323-69.193-16.238 0.512-27.794-10.386-29.55-25.161-4.462-38.473-4.535-77.678-0.219-116.443 1.609-14.482 18.871-25.234 33.573-25.234 44.544 1.17 87.333-26.478 105.253-70.144 17.847-43.666 6.363-94.574-28.599-126.683-10.971-10.021-12.361-26.843-3.145-38.546 23.771-30.354 51.054-57.929 80.969-81.993 11.703-9.435 28.745-8.119 38.912 3.072 30.647 33.938 85.431 46.446 127.561 28.745 44.178-18.505 71.899-63.195 69.193-111.177-0.878-15.067 10.167-28.16 25.161-29.915 19.529-2.267 39.205-3.438 58.88-3.438 18.725 0 37.449 1.024 56.174 3.145 14.848 1.609 25.819 14.409 25.307 29.33-1.682 47.47 26.478 91.355 69.998 109.202 42.13 17.189 96.329 4.608 126.757-28.818 10.094-11.045 26.843-12.361 38.619-3.291 30.574 24.064 58.441 51.639 82.725 81.92 9.435 11.776 8.119 28.818-3.072 38.912-35.547 32.329-47.104 83.675-28.599 127.781 17.335 41.545 59.392 69.413 104.667 69.413l6.29-0.146c14.702-1.17 28.16 10.167 29.915 25.161 4.535 38.473 4.608 77.678 0.293 116.443zM512.219 276.919c-94.135 0-170.642 76.654-170.642 170.862 0 94.135 76.507 170.789 170.642 170.789 94.062 0 170.642-76.654 170.642-170.789 0-94.208-76.581-170.862-170.642-170.862z" />
<glyph unicode="&#xe90b;" glyph-name="compare-new" horiz-adv-x="1317" d="M696.174 461.093c-11.045 1.682-22.089 2.926-33.134 2.926-72.558 0-145.042-31.89-183.954-97.134-57.929-97.353-21.65-226.45 78.775-282.624 33.061-18.505 69.339-22.674 104.96-22.674 72.558 0 144.823 36.498 183.662 101.742 43.886 73.728 32.841 158.208-17.701 221.623l148.919 360.375-281.527-284.233zM753.737 209.627c-18.725-31.451-53.467-46.299-90.917-46.299-18.505 0-36.279-0.073-52.443 9.070-50.103 28.014-67.365 90.331-38.4 138.971 18.651 31.378 53.541 50.907 91.063 50.907 18.505 0 36.059-4.608 52.224-13.678 50.103-28.087 67.365-90.405 38.473-138.971zM658.359 959.269c363.52 0 658.213-307.858 658.213-673.207 0-133.559-41.984-246.053-109.714-350.062h-274.286l-18.139 123.392h201.289c36.425 71.607 50.322 142.555 50.322 223.963 0 280.869-225.719 522.533-503.223 522.533-277.431 0-503.223-241.664-503.223-522.533 0-81.408 13.97-152.357 50.322-223.963h201.289l-27.136-123.392h-276.699c-67.73 104.009-107.227 216.503-107.227 350.062 0 365.349 294.693 673.207 658.213 673.207z" />
<glyph unicode="&#xe90c;" glyph-name="staricon" horiz-adv-x="1088" d="M816.128 306.432l64.192-370.688-336.32 175.040-336.384-175.040 64.256 370.688-272.128 262.528 376.064 54.080 168.192 337.216 168.192-337.216 376.064-54.080-272.128-262.528zM631.744 520.96l-94.528 193.216-94.528-193.216-211.392-30.976 152.96-150.4-36.096-212.288 189.056 100.224 189.056-100.224-36.16 212.288 152.96 150.4-211.328 30.976z" />
<glyph unicode="&#xe90d;" glyph-name="photo" horiz-adv-x="1184" d="M1137.218-18.603c-30.753-30.753-67.913-46.221-111.479-46.221h-866.94c-43.475 0-80.635 15.468-111.388 46.221-30.844 30.844-46.221 67.913-46.221 111.479v551.723c0 43.475 15.376 80.635 46.221 111.388 30.753 30.753 67.913 46.221 111.388 46.221h137.931l31.394 83.747c7.78 20.044 22.058 37.434 42.834 51.987 20.685 14.553 41.919 21.875 63.703 21.875h315.218c21.783 0 43.018-7.322 63.794-21.875s34.963-31.943 42.834-51.987l31.302-83.747h137.931c43.567 0 80.726-15.468 111.479-46.221s46.221-67.913 46.129-111.388v-551.723c0-43.567-15.376-80.635-46.129-111.479zM787.129 563.598c-53.909 54.001-118.893 80.91-194.86 80.91-75.876 0-140.859-26.909-194.86-80.91s-81.001-118.985-81.001-194.952c0-75.876 27-140.859 81.001-194.86 54.001-53.909 118.985-80.91 194.86-80.91 75.967 0 140.951 27 194.86 80.91 54.001 54.001 81.001 118.985 81.001 194.86 0 75.967-27 140.951-81.001 194.952zM592.269 191.359c-48.784 0-90.611 17.39-125.3 52.079s-51.987 76.425-51.987 125.208c0 48.875 17.299 90.703 51.987 125.391s76.516 51.987 125.3 51.987c48.875 0 90.611-17.299 125.3-51.987s52.079-76.516 52.079-125.391c0-48.784-17.39-90.52-52.079-125.208s-76.425-52.079-125.3-52.079z" />
<glyph unicode="&#xe90e;" glyph-name="mail" horiz-adv-x="1303" d="M1148.649 960.093h-994.118c-85.271 0-154.717-68.98-154.717-153.693v-716.614c0-84.806 69.446-153.693 154.717-153.693h994.118c85.364 0 154.717 68.887 154.717 153.693v716.614c0 84.713-69.353 153.693-154.717 153.693zM1184.768 28.067h-1066.263c-13.498 0-25.321 8.564-25.321 18.339v726.295l487.424-453.632c9.216-8.099 20.945-12.474 33.047-12.474h75.962c12.009 0 23.738 4.375 32.954 12.474l487.61 454.842-0.186-727.505c0-9.775-11.823-18.339-25.228-18.339zM651.636 400.337l-466.479 467.968h932.864l-466.385-467.968z" />
<glyph unicode="&#xe90f;" glyph-name="phone" horiz-adv-x="768" d="M689.323 209.067c-47.616 57.515-98.133 95.488-156.757 53.589l-34.987-25.429c-25.6-18.347-80.469-113.749-221.525 117.675-141.141 231.168-38.827 249.003-13.227 267.179l35.157 25.344c58.368 42.069 45.909 107.52 15.701 177.493l-18.261 42.325c-30.379 69.803-66.731 118.016-125.184 76.117l-31.659-22.869c-25.344-15.019-97.451-65.451-126.635-176.896-34.987-133.632 6.315-298.667 123.136-490.155 116.651-191.573 240.555-297.301 367.616-314.283 105.728-14.251 176.725 38.059 199.253 57.515l31.744 22.869c58.283 41.984 31.659 97.195-15.872 154.795l-28.501 34.731z" />
<glyph unicode="&#xe910;" glyph-name="pin" horiz-adv-x="753" d="M376.32 960.576c-207.68 0-376.64-169.28-376.64-377.408 0-54.272 11.136-106.112 32.96-154.048 94.144-206.464 274.688-424.448 327.808-486.336 3.968-4.608 9.728-7.296 15.872-7.296 6.080 0 11.904 2.688 15.872 7.296 53.056 61.888 233.6 279.872 327.744 486.336 21.888 47.936 32.96 99.776 32.96 154.048 0 208.128-168.96 377.408-376.576 377.408zM376.32 387.136c-107.904 0-195.648 88-195.648 196.096s87.744 196.032 195.648 196.032c107.84 0 195.584-87.936 195.584-196.032s-87.744-196.096-195.584-196.096z" />
<glyph unicode="&#xe911;" glyph-name="vin_check" horiz-adv-x="910" d="M390.087 165.49l-208.498 237.227 59.449 58.539 149.049-114.745 279.097 242.745 59.449-58.482-338.546-365.284zM779.947 832c0.114-0.057 0.171-0.171 0.228-0.228v-767.545c-0.057-0.057-0.114-0.171-0.228-0.228h-649.671c-0.114 0.057-0.171 0.171-0.228 0.228v767.545c0.057 0.057 0.114 0.171 0.228 0.228h-130.276v-768c0-70.428 58.539-128 130.048-128h650.126c71.509 0 130.048 57.572 130.048 128v768h-130.276zM585.159 832v64c0 35.328-29.127 64-65.024 64h-130.048c-35.897 0-65.024-28.672-65.024-64v-64h-129.991v-128h520.078v128h-129.991zM520.135 832h-130.048v64h130.048v-64z" />
<glyph unicode="&#xe912;" glyph-name="color_type" d="M512.384 960c-282.944 0-512.32-229.248-512.32-512s229.376-512 512.32-512c282.944 0 512.32 229.248 512.32 512s-229.376 512-512.32 512zM512.384 38.4v819.2c225.984 0 409.856-183.744 409.856-409.6s-183.872-409.6-409.856-409.6z" />
<glyph unicode="&#xe913;" glyph-name="body_type" horiz-adv-x="1769" d="M1035.075 960.279h-702.371c-50.548 0-105.472-38.353-126.697-84.62l-184.785-376.273c-18.525-38.26-21.225-65.443-21.225-103.703v-215.133c0-43.567 10.426-75.962 76.241-75.962h95.046c7.727-95.418 81.92-168.867 174.266-168.867 92.439 0 169.239 73.449 174.359 168.867h633.856c7.727-95.418 84.527-168.867 176.966-168.867 92.346 0 169.239 73.449 174.266 168.867h182.086c42.17 0 81.92 21.876 81.92 76.241v223.511c-2.7 46.266-18.804 100.631-105.472 114.781l-335.22 75.962-166.54 280.576c-29.231 52.131-76.8 84.62-126.697 84.62zM348.529 25.832c-52.596 0-94.767 43.567-94.767 97.839 0 54.365 42.17 97.932 94.767 97.932 52.689 0 94.86-43.567 94.86-97.932 0-54.924-42.17-97.839-94.86-97.839zM1334.176 25.832c-0.372 0-0.745 0-1.024 0-52.689 0-94.86 43.567-94.86 97.839 0 54.365 42.17 97.932 94.86 97.932 52.596 0 92.346-43.567 92.346-97.932 0-54.551-41.891-97.839-91.322-97.839zM207.776 597.876l81.92 190.743c23.924 46.266 42.449 62.65 84.62 65.443h258.327v-256.186h-424.867zM743.793 598.155c0 2.793 0 256.186 0 256.186h235.055c47.849 0 79.22-29.882 100.445-65.443l110.871-190.743h-446.371z" />
<glyph unicode="&#xe914;" glyph-name="pin_2" horiz-adv-x="661" d="M330.366 960.468c-182.571 0-331.034-152.075-331.034-338.993 0-75.302 46.947-198.019 143.515-375.239 68.28-125.325 135.49-229.852 138.299-234.265l49.22-76.372 49.22 76.372c2.809 4.414 69.952 108.94 138.299 234.265 96.568 177.22 143.515 299.937 143.515 375.239 0 186.917-148.531 338.993-331.034 338.993zM330.366 448.067c-94.763 0-171.603 78.646-171.603 175.682s76.84 175.749 171.603 175.749c94.763 0 171.603-78.713 171.603-175.749s-76.84-175.682-171.603-175.682z" />
<glyph unicode="&#xe915;" glyph-name="phone_2" d="M371.742 399.922l188.336 188.416c38.813 38.733 99.417 41.835 142.127 10.021 5.408-1.273 10.498-3.659 14.714-7.794l46.448-46.448c30.143-30.143 78.898-30.143 109.041 0l129.402 129.481c30.143 30.064 30.143 78.818 0 108.962l-92.975 92.975c-115.245 115.165-302.706 115.165-417.951 0l-406.339-406.339c-115.245-115.165-115.245-302.786 0-417.951l92.975-92.975c30.064-30.143 78.818-30.143 108.962 0l129.481 129.481c30.143 29.984 30.064 78.898 0 108.962l-46.527 46.448c-4.136 4.215-6.363 9.305-7.794 14.714-31.893 42.63-28.791 103.235 10.101 142.048z" />
<glyph unicode="&#xe916;" glyph-name="mail-o" horiz-adv-x="1536" d="M51.2 864.256c41.6-23.168 618.24-343.808 639.744-355.712s49.28-17.664 77.312-17.664c28.032 0 55.808 5.76 77.312 17.664s598.144 332.544 639.744 355.712c41.728 23.040 81.152 95.744 4.608 95.744h-1443.328c-76.416 0-37.12-72.704 4.608-95.744zM1502.976 687.616c-47.36-25.472-628.48-339.968-657.408-355.584-28.928-15.744-49.28-17.664-77.312-17.664s-48.256 1.92-77.312 17.664c-28.928 15.616-610.048 330.112-657.408 355.584-33.28 17.92-33.024-3.072-33.024-19.328s0-647.552 0-647.552c0-36.992 47.616-84.736 84.608-84.736h1366.272c36.992 0 84.608 47.744 84.608 84.736 0 0 0 631.296 0 647.552s0.384 37.248-33.024 19.328z" />
<glyph unicode="&#xe917;" glyph-name="user-2" horiz-adv-x="1018" d="M519.022 366.076c-150.313 0-272.029 135.556-272.029 302.661s121.716 291.059 272.029 291.059c150.313 0 272.13-123.955 272.13-291.059s-121.818-302.661-272.13-302.661zM89.048-58.301c0 0-57.092-3.867-82.229 31.243-13.535 19.031-4.173 57.398 5.19 78.871l22.694 52.513c0 0 62.995 142.578 134.539 225.317 44.066 50.579 96.375 39.079 130.163 22.593 20.863-10.075 44.473-39.69 61.672-55.362 23.712-21.473 65.641-46 134.132-47.424h42.031c68.491 1.425 110.318 25.951 134.030 47.424 17.199 15.672 40.199 46.101 60.858 56.685 31.040 15.672 78.26 25.442 121.105-23.916 71.645-82.738 128.433-227.861 128.433-227.861l23.305-51.597c9.668-21.27 19.54-59.535 6.31-78.769-23.61-34.296-76.53-29.717-76.53-29.717h-845.701z" />
<glyph unicode="&#xe918;" glyph-name="hashtag" d="M960 576v128h-160.128l32 256h-128l-32-256h-255.936l32 256h-128l-32-256h-223.936v-128h207.936l-31.936-256h-176v-128h160l-32-256h128l32 256h256l-32.064-256h128.064l32 256h224v128h-208l31.872 256h176.128zM624 320h-256l31.936 256h255.936l-31.872-256z" />
<glyph unicode="&#xe919;" glyph-name="write_message" horiz-adv-x="1026" d="M997.937 933.937c37.556-37.556 37.488-98.508 0-136.064l-45.355-45.355-136.064 136.064 45.286 45.355c37.624 37.556 98.576 37.556 136.132 0zM317.687 389.751l-45.286-181.35 181.35 45.286 453.477 453.477-136.064 136.064-453.477-453.477zM769.59 478.818v-414.553h-641.325v641.325h414.553l128.265 128.265h-671.083v-897.856h897.856v671.083l-128.265-128.265z" />
<glyph unicode="&#xe91a;" glyph-name="star-o" horiz-adv-x="1092" d="M1074.79 514.082l-221.73-211.763 52.361-299.008c3.755-21.572-5.325-43.349-23.347-56.183-10.24-7.305-22.323-10.991-34.475-10.991-9.353 0-18.705 2.185-27.307 6.622l-274.091 141.175-274.159-141.175c-19.729-10.24-43.691-8.465-61.781 4.301-18.022 12.902-27.034 34.611-23.279 56.183l52.361 299.076-221.73 211.763c-16.043 15.223-21.709 38.093-14.882 58.846 6.895 20.821 25.19 35.908 47.309 39.049l306.449 43.691 137.148 272.111c9.83 19.593 30.242 32.017 52.565 32.017s42.667-12.425 52.497-32.017l137.148-272.111 306.517-43.622c22.050-3.14 40.414-18.295 47.241-39.117 6.963-20.753 1.092-43.554-14.814-58.846z" />
<glyph unicode="&#xe91b;" glyph-name="inventory" horiz-adv-x="1079" d="M539.373 959.595l539.373-269.687-539.373-269.687-539.373 269.687 539.373 269.687zM539.373 322.124l-389.023 194.511-150.35-75.175 539.373-269.687 539.373 269.687-150.35 75.175-389.023-194.511zM539.373 86.755l-389.023 194.511-150.35-75.175 539.373-269.687 539.373 269.687-150.35 75.175-389.023-194.511z" />
<glyph unicode="&#xe91c;" glyph-name="photos" horiz-adv-x="1068" d="M924.848-64h-781.664c-78.628 0-143.184 65.525-143.184 143.911v461.582c0 78.386 64.556 142.743 143.195 142.743l103.864 0.584 110.911 160.295c6.452 9.359 17.023 15.789 28.76 15.789h289.308c11.737 0 22.88-6.43 29.333-16.384l107.399-159.7 112.078-0.584c78.639 0 143.195-64.358 143.195-142.743v-461.582c0-78.386-64.556-143.911-143.195-143.911zM997.035 79.911v461.582c0 39.782-32.856 72.539-72.77 72.539l-131.446 1.167c-11.154 0-22.297 6.43-28.76 15.8l-106.804 159.116h-251.75l-110.911-160.295c-6.452-9.348-17.012-15.789-28.749-15.789h-122.649c-39.914 0-72.77-32.757-72.77-72.539v-461.582c0-39.771 32.856-73.706 72.77-73.706h781.664c39.903 0 72.759 33.935 72.759 73.706h-0.584zM870.862 448.473c-26.987 0-48.701 21.647-48.701 48.557s21.713 48.557 48.701 48.557c26.998 0 48.712-21.647 48.712-48.557s-21.713-48.557-48.712-48.557zM870.862 518.678c-11.737 0-21.713-9.954-21.713-21.647 0-11.704 9.392-21.647 21.713-21.647 12.332 0 21.713 9.943 21.713 21.647 0 11.693-9.976 21.647-21.713 21.647zM870.862 483.576c-7.454 0-13.499 6.023-13.499 13.455s6.045 13.455 13.499 13.455c7.454 0 13.499-6.023 13.499-13.455s-6.045-13.455-13.499-13.455zM536.95 102.736c-137.315 0-249.405 111.737-249.405 248.623 0 136.897 111.506 248.634 249.405 248.634 137.326 0 249.416-111.737 249.416-248.634 0-136.886-112.089-248.623-249.416-248.623zM536.95 529.788c-98.579 0-178.98-80.147-178.98-178.429s80.401-178.429 178.98-178.429c98.59 0 178.991 80.147 178.991 178.429s-80.401 178.429-178.991 178.429zM989.129 816.86h-42.204v-42.204c0-19.258-14.787-34.871-33.032-34.871s-33.032 15.613-33.032 34.871v42.204h-42.204c-19.258 0-34.871 14.787-34.871 33.032s15.613 33.032 34.871 33.032h42.204v42.215c0 19.258 14.787 34.86 33.032 34.86s33.032-15.602 33.032-34.86v-42.215h42.204c19.258 0 34.871-14.787 34.871-33.032s-15.613-33.032-34.871-33.032z" />
<glyph unicode="&#xe91d;" glyph-name="add_check" horiz-adv-x="1671" d="M1347.368 313.263c-178.607 0-323.368 144.761-323.368 323.368s144.761 323.368 323.368 323.368c178.607 0 323.368-144.761 323.368-323.368s-144.761-323.368-323.368-323.368zM1516.975 790.717c-5.012 4.851-11.965 7.599-18.917 7.599-6.899 0-13.851-2.749-18.863-7.599l-182.056-178.607-81.597 80.195c-5.012 4.904-11.911 7.599-18.863 7.599s-13.905-2.695-18.863-7.599l-37.78-36.972c-4.958-4.904-7.761-11.695-7.761-18.486s2.803-13.581 7.761-18.486l138.24-135.384c4.958-4.904 11.911-7.599 18.863-7.599s13.851 2.695 18.863 7.599l238.7 233.795c5.012 4.851 7.761 11.695 7.761 18.486s-2.749 13.581-7.761 18.486l-37.726 36.972zM1092.015 289.765c36.81-27.109 77.932-48.775 122.395-63.165 18.055-21.558 31.313-47.212 37.511-75.56 2.641-12.18 4.096-24.684 4.096-37.619 0-12.881-1.455-25.438-4.096-37.565-17.408-79.98-89.196-140.072-174.942-140.072s-157.48 60.093-174.888 140.072c-2.641 12.126-4.15 24.684-4.15 37.565 0 12.935 1.509 25.438 4.15 37.619 17.408 79.926 89.196 140.072 174.888 140.072 5.12 0 10.024-0.916 15.037-1.347zM981.1 151.040c-4.635-11.695-7.437-24.307-7.437-37.619 0-13.258 2.749-25.869 7.437-37.565 15.144-37.942 52.332-64.943 95.879-64.943s80.68 27.055 95.879 64.943c4.689 11.695 7.437 24.307 7.437 37.565 0 13.312-2.749 25.923-7.437 37.619-15.144 37.942-52.332 64.889-95.879 64.889s-80.734-27.001-95.879-64.889zM464.141 454.252c0 144.115 118.191 261.389 263.437 261.389 74.051 0 140.773-30.72 188.685-79.71 0.108-80.195 22.474-155.001 60.739-219.244h-512.862v37.565zM911.414 491.816c-17.624 84.723-93.346 148.642-183.835 148.642s-166.265-63.919-183.835-148.642h367.67zM727.579 777.297c-174.242 0-331.453-109.46-391.114-272.384l-5.066-13.743-13.096-6.737c-22.474-11.587-43.816-21.504-63.973-30.828-113.071-52.493-172.679-80.141-178.499-302.565h83.537c-2.21-12.234-3.557-24.738-3.557-37.619 0-12.827 1.347-25.331 3.557-37.565h-159.744v37.565c0 290.816 80.465 342.285 222.639 408.253 15.414 7.114 31.582 14.605 48.397 23.013 74.321 184.697 256 307.739 456.973 307.739 78.309 0 153.384-19.133 220.645-52.871-9.593-23.552-17.3-48.074-22.636-73.459-59.769 32.391-127.299 51.2-198.063 51.2zM370.095 291.112c85.747 0 157.48-60.147 174.942-140.072 2.641-12.18 4.096-24.684 4.096-37.619 0-12.881-1.455-25.438-4.096-37.565-17.408-79.98-89.25-140.072-174.942-140.072s-157.48 60.093-174.942 140.072c-2.641 12.126-4.096 24.684-4.096 37.565 0 12.935 1.455 25.438 4.096 37.619 17.462 79.926 89.196 140.072 174.942 140.072zM274.216 75.857c15.144-37.942 52.332-64.943 95.879-64.943s80.734 27.055 95.879 64.943c4.689 11.695 7.437 24.307 7.437 37.565 0 13.312-2.749 25.923-7.437 37.619-15.144 37.942-52.332 64.889-95.879 64.889s-80.68-27.001-95.879-64.889c-4.689-11.695-7.437-24.307-7.437-37.619 0-13.258 2.749-25.869 7.437-37.565zM866.25 151.040c-2.156-12.234-3.503-24.738-3.503-37.619 0-12.827 1.347-25.331 3.503-37.565h-285.427c2.21 12.234 3.557 24.738 3.557 37.565 0 12.881-1.347 25.384-3.557 37.619h285.427zM1379.274 151.040c-0.485 20.372-1.671 38.589-3.072 55.889 25.654 1.725 50.607 5.605 74.806 11.641 2.91-31.205 4.473-65.805 4.473-105.149v-37.565h-167.774c2.264 12.234 3.557 24.738 3.557 37.565 0 12.881-1.293 25.384-3.557 37.619h91.567z" />
<glyph unicode="&#xe91e;" glyph-name="write-review" horiz-adv-x="1026" d="M997.937 933.937c37.556-37.556 37.488-98.508 0-136.064l-45.355-45.355-136.064 136.064 45.286 45.355c37.624 37.556 98.576 37.556 136.132 0zM317.687 389.751l-45.286-181.35 181.35 45.355 453.477 453.409-136.064 136.064-453.477-453.477zM769.59 478.818v-414.553h-641.325v641.325h414.553l128.265 128.265h-671.083v-897.856h897.856v671.083l-128.265-128.265z" />
<glyph unicode="&#xe91f;" glyph-name="payment_listing" horiz-adv-x="1639" d="M857.644 69.816c-2.655 10.688-4.179 22.958-4.179 35.584s1.523 24.896 4.396 36.636l-0.218-1.052c17.478 76.707 85.094 133.095 165.885 133.12h12.291c34.060-25.944 73.683-46.866 116.505-60.663l2.791-0.777c22.916-28.65 36.774-65.413 36.774-105.413 0-93.597-75.875-169.472-169.472-169.472-80.326 0-147.599 55.884-165.061 130.893l-0.224 1.144zM932.396 140.984c-4.481-10.59-7.111-22.9-7.168-35.818v-0.022c0.112-12.945 2.736-25.247 7.405-36.484l-0.237 0.644c14.693-36.951 50.146-62.597 91.59-62.597 12.92 0 25.259 2.493 36.56 7.023l-0.662-0.234c24.815 10.603 44.181 29.969 54.53 54.117l0.254 0.667c4.379 10.61 6.921 22.928 6.921 35.84s-2.542 25.231-7.154 36.482l0.233-0.642c-14.979 36.341-50.125 61.454-91.136 61.454s-76.157-25.114-90.897-60.801l-0.239-0.653zM185.9 69.816c-2.256 10.355-3.549 22.25-3.549 34.447 0 93.314 75.646 168.96 168.96 168.96 12.501 0 24.685-1.358 36.412-3.933l-1.119 0.206c76.932-16.858 133.667-84.42 133.667-165.233 0-93.314-75.646-168.96-168.96-168.96-81.117 0-148.883 57.163-165.212 133.404l-0.199 1.109zM260.652 140.984c-4.364-10.531-6.898-22.762-6.898-35.584s2.534-25.053 7.129-36.218l-0.231 0.634c14.376-37.25 49.892-63.195 91.468-63.195 12.97 0 25.35 2.525 36.676 7.11l-0.656-0.235c25.473 10.33 45.135 30.493 54.566 55.656l0.218 0.664c4.601 10.495 7.278 22.727 7.278 35.584s-2.678 25.089-7.505 36.169l0.227-0.585c-14.979 36.341-50.125 61.454-91.136 61.454s-76.157-25.114-90.897-60.801l-0.239-0.653zM1382.956 69.816h-159.232c2.093 10.674 3.389 23.040 3.582 35.673l0.002 0.167c-0.482 13.071-1.767 25.421-3.818 37.509l0.234-1.669h87.040c0 18.432 0 36.352-2.56 51.2 26.181 1.715 50.507 5.54 74.048 11.354l-2.88-0.602c0-29.696 4.096-62.976 4.096-99.328v-35.84zM823.34 69.816h-271.36c2.093 10.674 3.389 23.040 3.582 35.673l0.002 0.167c-0.482 13.071-1.767 25.421-3.818 37.509l0.234-1.669h271.36c-2.199-10.699-3.458-22.994-3.458-35.584s1.259-24.886 3.657-36.769l-0.2 1.185zM151.596 69.816h-151.552v35.84c0 276.48 76.8 325.12 211.456 387.584h3.072c13.824 6.144 28.16 12.8 43.008 20.48 71.144 173.351 238.631 293.211 434.113 293.211 76.361 0 148.45-18.289 212.125-50.727l-2.654 1.227c-8.338-19.592-15.742-42.87-21.011-66.946l-0.493-2.686c-54.519 30.132-119.524 47.865-188.67 47.865-149.431 0-279.52-82.815-346.873-205.052l-1.033-2.045c-7.287-13.574-15.033-30.437-21.85-47.768l-1.19-3.432-4.608-13.312-12.8-6.656c-20.992-10.752-41.472-20.48-60.416-29.184-105.984-51.2-163.84-76.288-169.984-287.232h79.36c-1.956-10.775-3.075-23.177-3.075-35.84s1.118-25.065 3.262-37.112l-0.188 1.272zM1277.996 286.392c-172.839 16.358-306.991 160.763-306.991 336.502 0 183.494 146.253 332.828 328.548 337.793l0.459 0.010c186.728-1.154 337.79-152.216 338.943-338.834l0.001-0.11c-1.451-186.090-152.641-336.384-338.934-336.384-0.004 0-0.007 0-0.011 0h-24.063zM1193.516 538.296c-4.54-6.284-7.261-14.142-7.261-22.635 0-13.302 6.675-25.046 16.858-32.063l0.131-0.085c15.844-11.164 34.606-19.381 54.88-23.399l0.928-0.153v-3.584c0-21.773 17.651-39.424 39.424-39.424s39.424 17.651 39.424 39.424v8.192c45.084 14.647 77.101 56.284 77.101 105.399 0 47.594-30.065 88.167-72.239 103.761l-0.766 0.248c-25.735 7.928-48.142 18.549-68.631 31.87l1.047-0.638c-0.84 1.804-1.331 3.917-1.331 6.144s0.49 4.34 1.369 6.236l-0.038-0.092c1.374 7.906 6.619 14.338 13.674 17.351l0.15 0.057c4.775 2.111 10.345 3.34 16.201 3.34 9.123 0 17.55-2.983 24.358-8.026l-0.111 0.078c7.137-7.15 17.004-11.574 27.904-11.574s20.767 4.424 27.903 11.573l0.001 0.001c7.277 7.078 11.792 16.964 11.792 27.904s-4.515 20.826-11.783 27.895l-0.009 0.009c-12.296 12.161-27.671 21.233-44.849 25.944l-0.719 0.168c0 21.773-17.651 39.424-39.424 39.424s-39.424-17.651-39.424-39.424v-5.632c-37.364-14.663-63.337-50.412-63.337-92.227 0-12.677 2.387-24.796 6.736-35.933l-0.231 0.672c5.795-15.108 14.516-27.943 25.55-38.353l0.050-0.047c25.873-18.074 55.776-32.888 87.802-42.898l2.31-0.622c11.618-2.812 20.113-13.121 20.113-25.413 0-2.063-0.239-4.070-0.692-5.995l0.035 0.177c-2.597-18.043-17.951-31.754-36.508-31.754-0.305 0-0.609 0.004-0.913 0.011l0.045-0.001c-2.864-0.42-6.169-0.66-9.531-0.66-15.725 0-30.224 5.251-41.838 14.096l0.169-0.124c-6.052 3.974-13.469 6.338-21.438 6.338-13.643 0-25.667-6.93-32.744-17.461l-0.089-0.141zM927.788 393.4h-486.4v35.84c1.011 137.505 112.715 248.583 250.362 248.583 70.223 0 133.693-28.91 179.158-75.478l0.048-0.050c0-0.221-0.001-0.482-0.001-0.744 0-76.77 21.12-148.607 57.867-210.018l-1.035 1.866zM518.188 464.568h349.184c-18.104 81.006-89.383 140.648-174.592 140.648s-156.488-59.642-174.368-139.456l-0.224-1.192z" />
<glyph unicode="&#xe920;" glyph-name="sales_phone" d="M511.964-63.964c-282.3 0-512 229.7-512 512 0 282.336 229.664 512.036 512 512.036s512-229.664 512-512.036c0-282.336-229.664-512-512-512zM511.964 877.545c-236.808 0-429.474-192.666-429.474-429.51 0-236.808 192.666-429.474 429.474-429.474 236.844 0 429.51 192.666 429.51 429.474 0 236.844-192.666 429.51-429.51 429.51zM665.074 492.888c-13.079-13.043-34.19-13.043-47.269 0l-20.152 20.152c-1.813 1.813-4.052 2.808-6.362 3.376-18.552 13.79-44.817 12.475-61.628-4.336l-81.673-81.673c-16.846-16.846-18.197-43.111-4.372-61.628 0.604-2.346 1.564-4.549 3.376-6.362l20.152-20.152c13.079-13.043 13.079-34.226 0-47.234l-56.119-56.154c-13.079-13.079-34.19-13.079-47.269 0l-40.268 40.339c-49.97 49.899-49.97 131.252 0 181.222l176.14 176.14c49.97 49.97 131.252 49.97 181.222 0l40.339-40.268c13.043-13.115 13.043-34.261 0-47.269l-56.119-56.154z" />
<glyph unicode="&#xe921;" glyph-name="sales_hours" horiz-adv-x="1116" d="M507.607 808.442c23.981 0 43.462-19.804 43.498-44.218v-268.225c17.896-12.747 29.851-33.164 31.867-56.533l151.234-88.832c20.813-12.243 27.906-39.249 15.916-60.386-8.066-14.187-22.649-22.109-37.665-22.109-7.382 0-14.835 1.908-21.677 5.941l-151.090 88.76c-9.758-4.681-20.561-7.49-32.047-7.49-41.913 0-76.013 34.712-76.013 77.382 0 26.178 12.927 49.295 32.551 63.302v268.189c0 24.414 19.444 44.218 43.426 44.218zM507.607 399.569c17.968 0 32.587 14.871 32.587 33.164 0 18.256-14.619 33.128-32.587 33.128-17.932 0-32.551-14.871-32.551-33.128 0-18.292 14.583-33.164 32.551-33.164zM1110.672 502.948l-117.279-139.532c-4.429-5.293-11.018-8.354-18.004-8.354s-13.539 3.061-18.004 8.354l-117.243 139.532c-5.869 6.95-7.094 16.564-3.241 24.738s12.135 13.395 21.245 13.395h68.992c-42.778 186.090-210.756 325.514-411.249 325.514-232.721 0-422.124-187.747-422.124-418.559 0-230.74 189.403-418.523 422.124-418.523 150.226 0 290.334 80.19 365.663 209.279 12.927 22.217 41.625 29.779 64.059 16.924s30.103-41.301 17.14-63.554c-92.037-157.68-263.256-255.658-446.861-255.658-284.5 0-515.925 229.48-515.925 511.532 0 282.088 231.46 511.568 515.925 511.568 252.453 0 462.993-180.761 507.247-418.559h69.496c9.146 0 17.392-5.221 21.245-13.395 3.889-8.174 2.629-17.788-3.205-24.702z" />
<glyph unicode="&#xe922;" glyph-name="pin_big" horiz-adv-x="783" d="M391.529 960.602c-216.245 0-392.132-169.321-392.132-377.434 0-54.272 11.505-106.074 34.274-154.022 98.063-206.487 285.997-424.478 341.293-486.34 4.156-4.638 10.18-7.349 16.565-7.349 6.325 0 12.408 2.711 16.504 7.349 55.296 61.862 243.29 279.853 341.353 486.34 22.769 47.947 34.274 99.75 34.274 154.022 0 208.113-175.947 377.434-392.132 377.434zM391.529 387.162c-112.339 0-203.716 87.944-203.716 196.006 0 108.122 91.377 196.066 203.716 196.066 112.279 0 203.656-87.944 203.656-196.066 0-108.062-91.377-196.006-203.656-196.006z" />
<glyph unicode="&#xe923;" glyph-name="shield-o" horiz-adv-x="956" d="M907.725 424.533c-31.573-97.758-77.175-185.344-135.543-260.335-73.267-94.191-166.741-168.414-277.811-220.655l-16.247-7.629-16.247 7.629c-111.070 52.241-204.527 126.481-277.811 220.655-58.368 74.991-103.97 162.577-135.543 260.335-53.504 165.666-48.299 302.473-48.060 308.224l1.399 32.068 32.427 3.294c124.587 12.595 231.68 58.368 299.588 94.566 74.377 39.629 119.467 76.817 119.91 77.175l24.371 20.241 24.337-20.258c0.427-0.358 45.5-37.53 119.876-77.158 67.908-36.198 175.019-81.971 299.588-94.583l32.444-3.277 1.382-32.068c0.239-5.751 5.461-142.558-48.060-308.224zM729.583 735.13c-49.015 16.691-97.809 37.973-144.998 63.266-47.889 25.634-84.343 50.142-106.462 66.167-22.118-16.026-58.556-40.533-106.462-66.167-47.189-25.293-95.983-46.575-144.981-63.266-50.142-17.067-100.659-29.372-150.63-36.676 1.604-47.701 9.574-144.845 45.090-253.747 29.065-89.122 70.673-168.704 123.682-236.51 62.225-79.616 140.646-143.377 233.301-189.747 93.099 46.592 171.827 110.746 234.206 190.908 53.043 68.164 94.618 148.139 123.529 237.687 35.021 108.407 42.837 204.169 44.39 251.409-49.988 7.305-100.523 19.593-150.665 36.676zM268.766 430.677l53.316 52.514 112.879-111.155 248.678 244.873 53.316-52.497-301.995-297.387-166.195 163.652z" />
<glyph unicode="&#xe924;" glyph-name="reviews" horiz-adv-x="1114" d="M206.669 325.253c-15.26 0-27.645 12.474-27.645 27.878 0 15.386 12.384 27.878 27.645 27.878h2.301c15.26 0 27.645-12.492 27.645-27.878 0-15.404-12.384-27.878-27.645-27.878h-2.301zM302.724 325.253c-15.278 0-27.645 12.474-27.645 27.878 0 15.386 12.366 27.878 27.645 27.878h2.301c15.26 0 27.627-12.492 27.627-27.878 0-15.404-12.366-27.878-27.627-27.878h-2.301zM988.59 367.385h-359.487c-7.010 0-13.157-0.108-17.974 0-7.136 0.144-27.752 2.516-39.112-7.963l-101.411-93.233c-8.088-7.441-20.059-9.365-30.071-4.907s-27.123 23.169-27.123 34.205v287.59h-287.59c-43.174 0-70.819-36.416-70.819-79.968v-313.797c0-43.552 35.805-77.793 78.979-77.793h400.343c6.902 0 13.337-3.199 18.442-7.891l82.61-76.822v264.96c0 15.386 12.366 27.878 27.627 27.878 15.278 0 27.645-12.492 27.645-27.878v-328.158c0-11.036-6.273-20.886-16.285-25.344-3.577-1.6-7.19-2.229-10.946-2.229-6.776 0-13.445 2.804-18.639 7.585l-121.165 112.142h-389.63c-73.659 0-134.251 59.262-134.251 133.55v313.797c0 74.288 60.592 134.988 134.251 134.988l279.43-1.096v197.718c0 74.306 71.143 125.533 144.802 125.533h423.494c73.641 0 132.705-59.675 132.705-133.963v-313.797c0-74.288-52.162-145.107-125.821-145.107zM1042.514 816.744v17.974c0 43.552-10.749 53.923-53.923 53.923h-431.385c-43.174 0-71.897-28.346-71.897-71.897v-467.334l49.016 51.209c2.57 2.373 5.464 4.548 7.567 6.507 25.362 23.582 36.146 32.839 69.237 32.156-174.765 3.721 359.487 0 359.487 0 43.174 0 71.897 28.346 71.897 71.897v305.564zM861.745 529.154l-88.847 41.089-88.865-41.089 12.187 96.019-67.098 70.621 96.379 18.244 47.398 84.731 47.398-84.731 96.379-18.244-67.098-70.621 12.169-96.019z" />
<glyph unicode="&#xe925;" glyph-name="two_users" horiz-adv-x="990" d="M593.319 224.315c-30.169 15.102-80.305 40.153-92.484 51.656 50.98 62.585 80.491 133.296 80.491 195.155 0 41.994 0 94.258-23.497 140.863-21.183 41.943-68.531 91.978-173.786 91.978s-152.586-50.034-173.769-91.978c-23.531-46.605-23.531-98.87-23.531-140.863 0-61.893 29.511-132.569 80.491-195.155-12.179-11.52-62.315-36.588-92.467-51.639-59.764-29.899-97.704-49.68-120.373-72.332-50.22-50.237-54.004-134.546-54.257-150.914-0.287-17.162 6.351-33.683 18.362-45.862 12.010-12.23 28.446-19.139 45.609-19.139h639.873c17.162 0 33.531 6.909 45.592 19.122 12.027 12.196 18.683 28.717 18.379 45.879-0.253 16.368-4.037 100.66-54.257 150.897-22.686 22.652-60.626 42.433-120.373 72.332zM64.089 0.021c0.439 26.858 8.429 79.579 35.541 106.724 15.71 15.693 52.906 34.899 103.734 60.339 60.136 30.017 91.623 47.028 107.822 62.399l43.159 40.811-37.484 46.048c-42.028 51.605-66.133 108.042-66.133 154.782 0 37.061 0 79.038 16.656 112.012 19.308 38.244 57.484 56.842 116.657 56.842s97.349-18.598 116.657-56.825c16.673-33.007 16.673-74.984 16.673-112.029 0-46.757-24.105-103.143-66.166-154.799l-37.5-46.082 43.193-40.811c16.183-15.321 47.653-32.281 107.805-62.332 50.828-25.473 88.075-44.68 103.751-60.372 27.179-27.213 35.136-79.866 35.524-106.674l-639.89-0.034zM935.874 407.949c-22.652 22.652-60.575 42.433-120.373 72.332-30.169 15.085-80.305 40.136-92.467 51.622 50.93 62.602 80.491 133.296 80.491 195.171 0 41.994 0 94.258-23.531 140.863-21.183 41.96-68.514 91.978-173.769 91.978-105.238 0-152.586-50.018-173.769-91.961-21.926-43.43-23.412-74.731-23.514-115.103h64.038c0.118 34.781 1.25 55.828 16.588 86.251 19.291 38.227 57.484 56.825 116.657 56.825s97.349-18.598 116.657-56.825c16.656-32.99 16.656-74.984 16.656-112.029 0-46.724-24.122-103.143-66.133-154.766l-37.517-46.115 43.21-40.811c16.166-15.304 47.619-32.264 107.755-62.332 50.862-25.456 88.092-44.68 103.734-60.356 27.23-27.213 35.169-79.866 35.575-106.674h-254.142l95.947-63.987h158.195c17.145 0 33.548 6.909 45.609 19.122 12.010 12.179 18.666 28.717 18.379 45.862-0.236 16.385-4.054 100.694-54.274 150.931z" />
<glyph unicode="&#xe926;" glyph-name="car-listing" horiz-adv-x="882" d="M796.835-64.182h-709.4c-47.646 0-87.654 38.751-87.654 86.397v851.59c0 47.627 40.009 86.378 87.654 86.378h625.427l169.111-170.351v-767.617c0-47.646-37.511-86.397-85.139-86.397zM821.879 746.105h-154.019v153.983h-580.425c-14.509 0-27.559-11.793-27.559-26.284v-851.59c0-14.509 13.051-26.302 27.559-26.302h709.4c14.491 0 25.044 11.793 25.044 26.302v723.89zM696.932 179.843v-87.089h-84.847v87.417h-343.49v-87.417h-84.847v87.089c-24.752 4.557-43.326 26.958-43.435 53.752l0.565 4.648c-0.128 30.038 9.861 74.421 22.201 98.609 3.609 7.090 9.114 13.78 15.766 19.722l56.085 140.513c15.53 38.787 59.202 69.135 99.411 69.135h211.070c40.209 0 83.863-30.348 99.393-69.099l55.611-139.31c7.51-6.234 13.616-13.379 17.771-20.961 13.233-24.187 23.823-68.57 23.695-98.609l-0.31-4.648c-0.109-26.812-19.886-49.231-44.638-53.752zM361.699 231.152h159.633c15.621 0 28.289 13.051 28.289 29.145s-12.668 29.145-28.289 29.145h-159.633c-15.621 0-28.289-13.051-28.289-29.145s12.668-29.145 28.289-29.145zM213.44 290.609c-14.509 0-26.265-12.121-26.265-27.067s11.756-27.067 26.265-27.067c14.509 0 26.284 12.121 26.284 27.067s-11.775 27.067-26.284 27.067zM592.509 474.739c-6.799 16.969-29.692 33.228-47.099 33.228h-211.070c-17.407 0-40.3-16.259-47.117-33.265l-37.53-94.216h380.364l-37.548 94.252zM665.217 290.609c-14.509 0-26.265-12.121-26.265-27.067s11.756-27.067 26.265-27.067c14.509 0 26.284 12.121 26.284 27.067s-11.775 27.067-26.284 27.067zM156.443 757.916h330.002v-60.095h-330.002v60.095z" />
</font>
</defs>
</svg>
